Torrents.ovh

The Shield S01 1080p Hulu Web Dl





General
Unique ID : 321642204726538683330816131701374547642 (0xF1FA090C721C99F165DE4EE15C2576BA)
Complete name : /Volumes/Seagate Wireless/The Shield/S01/S01E01 Pilot.mkv
Format : Matroska
Format version : Version 4 / Version 2
File size : 1.91 GiB
Duration : 46mn 17s
Overall bit rate : 5 905 Kbps
Encoded date : UTC 2018-04-20 21:00:31
Writing application : mkvmerge v20.0.0 ('I Am The Sun') 32-bit
Writing library : libebml v1.3.5 + libmatroska v1.4.8

Video
ID : 1
Format : AVC
Format/Info : Advanced Video Codec
Format profile : [email protected]
Format settings : CABAC / 4 Ref Frames
Format settings, CABAC : Yes
Format settings, ReFrames : 4 frames
Codec ID : V_MPEG4/ISO/AVC
Duration : 46mn 16s
Bit rate : 5 839 Kbps
Width : 1 920 pixels
Height : 1 080 pixels
Display aspect ratio : 16:9
Frame rate mode : Constant
Frame rate : 23.976 (24000/1001) fps
Color space : YUV
Chroma subsampling : 4:2:0
Bit depth : 8 bits
Scan type : Progressive
Bits/(Pixel*Frame) : 0.117
Stream size : 1.89 GiB (99%)
Default : Yes
Forced : No

Audio
ID : 2
Format : AAC
Format/Info : Advanced Audio Codec
Format profile : HE-AAC / LC
Format settings : Explicit
Codec ID : A_AAC-2
Duration : 46mn 17s
Bit rate : 64.0 Kbps
Channel(s) : 2 channels
Channel positions : Front: L R
Sampling rate : 48.0 KHz / 24.0 KHz
Frame rate : 23.438 fps (1024 SPF)
Compression mode : Lossy
Stream size : 21.2 MiB (1%)
Language : English
Default : Yes
Forced : No

Text
ID : 3
Format : UTF-8
Codec ID : S_TEXT/UTF8
Codec ID/Info : UTF-8 Plain Text
Duration : 46mn 12s
Bit rate : 90 bps
Count of elements : 1132
Stream size : 30.8 KiB (0%)
Language : English
Default : No
Forced : No

Menu
00:00:00.000 : en:Chapter 1
00:02:34.750 : en:Chapter 2
00:18:33.875 : en:Chapter 3
00:29:05.041 : en:Chapter 4
00:38:11.291 : en:Chapter 5

Files:

S01