Torrents.ovh

Mission Impossible Fallout 2018 1080p HC HDRip x264 AAC - Hon3yHD







Format : Matroska
Format version : Version 4 / Version 2
File size : 2.83 GiB
Duration : 2 h 27 min
Overall bit rate : 2 754 kb/s
Movie name : Mission Impossible Fallout.2018.1080p.HC.HDRip.x264.AAC.-.Hon3yHD




Video
ID : 1
Format : AVC
Format/Info : Advanced Video Codec
Format profile : [email protected]
Format settings : CABAC / 4 Ref Frames
Format settings, CABAC : Yes
Format settings, RefFrames : 4 frames
Codec ID : V_MPEG4/ISO/AVC
Duration : 2 h 27 min
Bit rate : 2 500 kb/s
Width : 1 920 pixels
Height : 800 pixels
Display aspect ratio : 2.40:1
Frame rate mode : Constant
Frame rate : 29.970 (30000/1001) FPS

Audio
ID : 2
Format : AAC
Format/Info : Advanced Audio Codec
Format profile : LC
Codec ID : A_AAC-2
Duration : 2 h 27 min
Bit rate : 274 kb/s
Channel(s) : 2 channels
Channel positions : Front: L R
Sampling rate : 48.0 kHz
Frame rate : 46.875 FPS (1024 SPF)
Compression mode : Lossy
Delay relative to video : 9 ms
Stream size : 288 MiB (10%)
Title : Hon3yHD.to
Language : English

Text
ID : 3
Format : UTF-8
Codec ID : S_TEXT/UTF8
Codec ID/Info : UTF-8 Plain Text
Duration : 2 h 19 min
Bit rate : 47 b/s
Count of elements : 1249
Stream size : 48.4 KiB (0%)
Title : Hon3yHD.to
Language : English
Default : Yes



For more Exclusive & Quality Stuff Visit :: Hon3yHD


Files:

Mission Impossible Fallout.2018.1080p.HC.HDRip.x264.AAC.-.Hon3yHD