Torrents.ovh

Karenjit Kaur The Untold Story of Sunny Leone [2018][Hindi Movie] HDRip 536MB-[D




https://imghostr.co/Hindi/KarenjitKaur/1.html
https://imghostr.co/Hindi/KarenjitKaur/2.html
https://imghostr.co/Hindi/KarenjitKaur/3.html
https://imghostr.co/Hindi/KarenjitKaur/4.html
https://imghostr.co/Hindi/KarenjitKaur/5.html

Code:


Format : MPEG-4
Format profile : Base Media
Codec ID : isom (isom/iso2/avc1/mp41)
File size : 564 MiB
Duration : 3 h 46 min
Overall bit rate mode : Variable
Overall bit rate : 348 kb/s
Movie name : www.TamilMv.one
Writing application : Lavf57.83.100

Video
ID : 1
Format : AVC
Format/Info : Advanced Video Codec
Format profile : [email protected]
Format settings : CABAC / 4 Ref Frames
Format settings, CABAC : Yes
Format settings, RefFrames : 4 frames
Codec ID : avc1
Codec ID/Info : Advanced Video Coding
Duration : 3 h 46 min
Bit rate : 314 kb/s
Width : 720 pixels
Height : 342 pixels
Display aspect ratio : 2.105
Original display aspect ratio : 2.107
Frame rate mode : Variable
Frame rate : 25.000 FPS
Minimum frame rate : 0.701 FPS
Maximum frame rate : 25.000 FPS
Color space : YUV
Chroma subsampling : 4:2:0
Bit depth : 8 bits
Scan type : Progressive
Bits/(Pixel*Frame) : 0.051
Stream size : 504 MiB (89%)
Writing library : x264 core 155 r2901 7d0ff22
Encoding settings : cabac=1 / ref=1 / deblock=1:0:0 / analyse=0x1:0x111 / me=hex / subme=2 / psy=1 / psy_rd=1.00:0.00 / mixed_ref=0 / me_range=16 / chroma_me=1 / trellis=0 / 8x8dct=0 / cqm=0 / deadzone=21,11 / fast_pskip=1 / chroma_qp_offset=0 / threads=11 / lookahead_threads=2 / sliced_threads=0 / nr=0 / decimate=1 / interlaced=0 / bluray_compat=0 / constrained_intra=0 / bframes=3 / b_pyramid=2 / b_adapt=1 / b_bias=0 / direct=1 / weightb=1 / open_gop=0 / weightp=1 / keyint=250 / keyint_min=25 / scenecut=40 / intra_refresh=0 / rc_lookahead=10 / rc=abr / mbtree=1 / bitrate=314 / ratetol=1.0 / qcomp=0.60 / qpmin=0 / qpmax=69 / qpstep=4 / vbv_maxrate=20000 / vbv_bufsize=25000 / nal_hrd=none / filler=0 / ip_ratio=1.40 / aq=1:1.00
Color range : Limited
Color primaries : BT.709
Transfer characteristics : BT.709
Matrix coefficients : BT.709

Audio
ID : 2
Format : AAC
Format/Info : Advanced Audio Codec
Format profile : LC
Codec ID : mp4a-40-2
Duration : 3 h 46 min
Duration_LastFrame : -5 ms
Bit rate mode : Variable
Bit rate : 31.0 kb/s
Channel(s) : 2 channels
Channel positions : Front: L R
Sampling rate : 48.0 kHz
Frame rate : 46.875 FPS (1024 SPF)
Compression mode : Lossy
Stream size : 49.8 MiB (9%)
Title : Stereo
Language : Tamil
Default : Yes
Alternate group : 1




Files: