Torrents.ovh

Genius (2018) 720p Hindi HQ Proper HDRip - x264 - 1 4GB - ESubs - MovCr

×

GENIUS Movie (Colin Firth, Jude Law - 2016)

  • Name: Genius
  • Category: Movies
  • Drama History
  • New York in the 1920s. Max Perkins, literary editor at Scribner’s Sons is the first to sign such subsequent literary greats as Ernest Hemingway and F. Scott Fitzgerald. When a sprawling, chaotic 1,000-page manuscript by an unknown writer named Thomas Wolfe falls into his hands, Perkins is convinced he has discovered a literary genius. Together the two men set out to work on a version for publication and a seemingly endless struggle over every single phrase ensues. During this process, Perkins the gentle family man and Wolfe the eccentric author become close – a relationship eyed with suspicion by their wives. When ‘Look Homeward, Angel’ becomes a resounding success, the writer grows increasingly paranoid.
  • Genius (2018) 720p Hindi HQ Proper HDRip - x264 - 1.4GB - ESubs - MovCr
  • Itorrents Mirror Torrage Mirror BTcache Mirror
  • hash: 4EAAA72F4CEFA24B9C6E39C04DEA2375A3EFD1B2
  • Size: 1.5 GB

Our Site www.movcr.com


Genius (2018) 720p Hindi HQ Proper HDRip - x264 - 1.4GB - ESubs - MovCr


https://www.imdb.com/title/tt7722258/



General
Unique ID : 321604292727683436038318331280237518117 (0xF1F2BBD7BEF8687FD07F8D1343CBDD25)
Complete name : www.MovCr.com - Genius (2018) 720p Hindi HQ Proper HDRip - x264 - 1.4GB - ESubs - MovCr.mkv
Format : Matroska
Format version : Version 4 / Version 2
File size : 1.50 GiB
Duration : 2 h 26 min
Overall bit rate : 1 460 kb/s
Movie name : www.MovCr.com
Encoded date : UTC 2018-09-14 09:53:23
Writing application : mkvmerge v26.0.0 ('In The Game') 64-bit
Writing library : libebml v1.3.6 + libmatroska v1.4.9

Video
ID : 1
Format : AVC
Format/Info : Advanced Video Codec
Format profile : [email protected]
Format settings : CABAC / 8 Ref Frames
Format settings, CABAC : Yes
Format settings, RefFrames : 8 frames
Codec ID : V_MPEG4/ISO/AVC
Duration : 2 h 26 min
Bit rate : 1 264 kb/s
Width : 1 280 pixels
Height : 606 pixels
Display aspect ratio : 2.112
Frame rate mode : Constant
Frame rate : 60.000 FPS
Color space : YUV
Chroma subsampling : 4:2:0
Bit depth : 8 bits
Scan type : Progressive
Bits/(Pixel*Frame) : 0.027
Stream size : 1.30 GiB (87%)
Title : www.MovCr.com
Writing library : x264 core 148 r2708 86b7198
Encoding settings : cabac=1 / ref=8 / deblock=1:0:0 / analyse=0x3:0x133 / me=umh / subme=9 / psy=1 / psy_rd=1.00:0.00 / mixed_ref=1 / me_range=16 / chroma_me=1 / trellis=2 / 8x8dct=1 / cqm=0 / deadzone=21,11 / fast_pskip=1 / chroma_qp_offset=-2 / threads=19 / lookahead_threads=1 / sliced_threads=0 / nr=0 / decimate=1 / interlaced=0 / bluray_compat=0 / constrained_intra=0 / bframes=3 / b_pyramid=2 / b_adapt=2 / b_bias=0 / direct=3 / weightb=1 / open_gop=0 / weightp=2 / keyint=600 / keyint_min=60 / scenecut=40 / intra_refresh=0 / rc_lookahead=60 / rc=2pass / mbtree=1 / bitrate=1264 / ratetol=1.0 / qcomp=0.60 / qpmin=0 / qpmax=69 / qpstep=4 / cplxblur=20.0 / qblur=0.5 / vbv_maxrate=62500 / vbv_bufsize=78125 / nal_hrd=none / filler=0 / ip_ratio=1.40 / aq=1:1.00
Language : Hindi
Default : Yes
Forced : No
Color range : Limited
Color primaries : BT.709
Transfer characteristics : BT.709
Matrix coefficients : BT.709

Audio
ID : 2
Format : MPEG Audio
Format version : Version 1
Format profile : Layer 3
Format settings : Joint stereo / MS Stereo
Codec ID : A_MPEG/L3
Codec ID/Hint : MP3
Duration : 2 h 26 min
Bit rate mode : Constant
Bit rate : 192 kb/s
Channel(s) : 2 channels
Sampling rate : 48.0 kHz
Frame rate : 41.667 FPS (1152 SPF)
Compression mode : Lossy
Stream size : 201 MiB (13%)
Title : www.MovCr.com
Language : Hindi
Default : Yes
Forced : No









Files: