Torrents.ovh

Avengers: Infinity War (2018) 720p H264 italian english Ac3-5 1 sub ita eng-MIRC

×

Marvel Studios' Avengers: Infinity War Official Trailer

  • Name: Avengers: Infinity War
  • Category: Movies
  • Adventure Science Fiction Fantasy Action
  • As the Avengers and their allies have continued to protect the world from threats too large for any one hero to handle, a new danger has emerged from the cosmic shadows: Thanos. A despot of intergalactic infamy, his goal is to collect all six Infinity Stones, artifacts of unimaginable power, and use them to inflict his twisted will on all of reality. Everything the Avengers have fought for has led up to this moment - the fate of Earth and existence itself has never been more uncertain.
  • Avengers: Infinity War (2018).720p.H264.italian.english.Ac3-5.1.sub.ita.eng-MIRC...
  • Itorrents Mirror Torrage Mirror BTcache Mirror
  • hash: 2244EA160A2E7141446F2D00685AD0213982233A
  • Size: 2.8 GB

Avengers: Infinity War (2018).720p.H264.italian.english.Ac3-5.1.sub.ita.eng-MIRCrew


NO FOUND ONLY ORIGINAL RELEASE



My release is always in double track audio italian and Original audio
for select it use VLC or dvd player home
not use wmp

Avengers: Infinity War (2018)

Quality MIRCrew on HD 720p da 2,8 gb





GENERE: Avventura, Azione, Fantasy
ANNO: 2018
REGIA: Anthony Russo, Joe Russo
PAESE: USA
DURATA: 149 Min



Robert Downey Jr., Chris Evans, Chris Hemsworth, Karen Gillan, Pom Klementieff, Chris Pratt, Tom Holland, Benedict Cumberbatch, Scarlett Johansson, Zoe Saldana, Dave Bautista, Cobie Smulders, Vin Diesel, Sebastian Stan, Josh Brolin, Elizabeth Olsen, Bradley Cooper, Chadwick Boseman, Mark Ruffalo, Paul Bettany, Benicio Del Toro, Sean Gunn, Benedict Wong, Anthony Mackie, Terry Notary



Dopo gli eventi di Captain America: Civil War il gruppo di Vendicatori si divide, con Captain America/Steve Rogers (Chris Evans) che lascia cadere a terra il suo scudo. Tony Stark/Iron Man (Robert Downey Jr.), rimasto senza plotone alle spalle, impiega tutti i mezzi a disposizione per difendere il pianeta dall'ennesimo attacco alieno, dalle armature high tech di sua invenzione, ai finanziamenti da "miliardario playboy filantropo"



The Avengers and their allies must be willing to sacrifice all in an attempt to defeat the powerful Thanos before his blitz of devastation and ruin puts an end to the universe









[spoiler]
General
Unique ID : 213878103337911633113045838580646303353 (0xA0E76CA34C2D7F67A5038D2BB0325679)
Complete name : Avengers Infinity War (2018).720p.h264.ita.eng.Ac3-5.1.sub.ita.eng-MIRCrew\Avengers Infinity War (2018).720p.h264.ita.eng.Ac3-5.1.sub.ita.eng-MIRCrew.mkv
Format : Matroska
Format version : Version 2
File size : 2.78 GiB
Duration : 2h 29mn
Overall bit rate : 2 668 Kbps
Movie name : MIRCrew
Encoded date : UTC 2018-08-09 11:46:16
Writing application : mkvmerge v5.4.0 ('Piper') built on Mar 10 2012 13:34:39
Writing library : Lavf54.63.100
COPYRIGHT : robbyrs

Video
ID : 1
Format : AVC
Format/Info : Advanced Video Codec
Format profile : [email protected]
Format settings, CABAC : Yes
Format settings, ReFrames : 2 frames
Format settings, GOP : M=1, N=3
Codec ID : V_MPEG4/ISO/AVC
Duration : 2h 29mn
Bit rate : 1 900 Kbps
Width : 1 264 pixels
Height : 528 pixels
Display aspect ratio : 2.40:1
Frame rate mode : Variable
Frame rate : 23.976 fps
Color space : YUV
Chroma subsampling : 4:2:0
Bit depth : 8 bits
Scan type : Progressive
Bits/(Pixel*Frame) : 0.119
Stream size : 1.93 GiB (69%)
Writing library : x264 core 130 r2273
Encoding settings : cabac=1 / ref=2 / deblock=1:0:0 / analyse=0x1:0x131 / me=hex / subme=7 / psy=1 / psy_rd=1.00:0.00 / mixed_ref=0 / me_range=16 / chroma_me=1 / trellis=1 / 8x8dct=0 / cqm=0 / deadzone=21,11 / fast_pskip=1 / chroma_qp_offset=-2 / threads=3 / lookahead_threads=1 / sliced_threads=0 / nr=0 / decimate=1 / interlaced=0 / bluray_compat=0 / constrained_intra=0 / bframes=3 / b_pyramid=0 / b_adapt=1 / b_bias=0 / direct=3 / weightb=1 / open_gop=0 / weightp=2 / keyint=230 / keyint_min=23 / scenecut=40 / intra_refresh=0 / rc_lookahead=40 / rc=abr / mbtree=1 / bitrate=1900 / ratetol=1.0 / qcomp=0.60 / qpmin=10 / qpmax=69 / qpstep=4 / vbv_maxrate=24000 / vbv_bufsize=24000 / nal_hrd=none / ip_ratio=1.40 / aq=1:1.00
Language : Italian
Default : Yes
Forced : No

Audio #1
ID : 2
Format : AC-3
Format/Info : Audio Coding 3
Mode extension : CM (complete main)
Codec ID : A_AC3
Duration : 2h 29mn
Bit rate mode : Constant
Bit rate : 384 Kbps
Channel(s) : 6 channels
Channel positions : Front: L C R, Side: L R, LFE
Sampling rate : 48.0 KHz
Bit depth : 16 bits
Compression mode : Lossy
Delay relative to video : -5ms
Stream size : 410 MiB (14%)
Title : Ita Ac3 5.1
Language : Italian
Default : Yes
Forced : No

Audio #2
ID : 3
Format : AC-3
Format/Info : Audio Coding 3
Mode extension : CM (complete main)
Codec ID : A_AC3
Duration : 2h 29mn
Bit rate mode : Constant
Bit rate : 384 Kbps
Channel(s) : 6 channels
Channel positions : Front: L C R, Side: L R, LFE
Sampling rate : 48.0 KHz
Bit depth : 16 bits
Compression mode : Lossy
Delay relative to video : -5ms
Stream size : 410 MiB (14%)
Title : Eng Ac3 5.1
Language : English
Default : No
Forced : No

Menu
00:00:00.000 : :00:00:00.000
00:11:28.730 : :00:11:28.730
00:18:13.884 : :00:18:13.884
00:27:23.809 : :00:27:23.809
00:35:48.813 : :00:35:48.813
00:42:23.541 : :00:42:23.541
00:54:12.875 : :00:54:12.875
00:59:36.740 : :00:59:36.740
01:05:07.153 : :01:05:07.153
01:10:53.666 : :01:10:53.666
01:17:06.956 : :01:17:06.956
01:24:14.758 : :01:24:14.758
01:31:08.004 : :01:31:08.004
01:42:00.406 : :01:42:00.406
01:45:57.810 : :01:45:57.810
01:53:04.069 : :01:53:04.069
01:58:52.917 : :01:58:52.917
02:03:58.181 : :02:03:58.181
02:11:13.282 : :02:11:13.282
02:17:31.285 : :02:17:31.285


[/spoiler]



Files:

Avengers Infinity War (2018).720p.h264.ita.eng.Ac3-5.1.sub.ita.eng-MIRCrew